  0
SECTION
  2
HEADER
  9
$ACADVER
  1
AC1014
  9
$ACADMAINTVER
 70
     0
  9
$DWGCODEPAGE
  3
ANSI_1252
  9
$INSBASE
 10
0.0
 20
0.0
 30
0.0
  9
$EXTMIN
 10
-3.056156
 20
-2.320659
 30
0.0
  9
$EXTMAX
 10
20.385
 20
5.246875
 30
0.0
  9
$LIMMIN
 10
0.0
 20
0.0
  9
$LIMMAX
 10
12.0
 20
9.0
  9
$ORTHOMODE
 70
     0
  9
$REGENMODE
 70
     1
  9
$FILLMODE
 70
     1
  9
$QTEXTMODE
 70
     0
  9
$MIRRTEXT
 70
     1
  9
$DRAGMODE
 70
     2
  9
$LTSCALE
 40
1.0
  9
$OSMODE
 70
    39
  9
$ATTMODE
 70
     1
  9
$TEXTSIZE
 40
0.2
  9
$TRACEWID
 40
0.05
  9
$TEXTSTYLE
  7
STANDARD
  9
$CLAYER
  8
0
  9
$CELTYPE
  6
BYLAYER
  9
$CECOLOR
 62
   256
  9
$CELTSCALE
 40
1.0
  9
$DELOBJ
 70
     1
  9
$DISPSILH
 70
     0
  9
$DIMSCALE
 40
1.0
  9
$DIMASZ
 40
0.18
  9
$DIMEXO
 40
0.0625
  9
$DIMDLI
 40
0.38
  9
$DIMRND
 40
0.0
  9
$DIMDLE
 40
0.0
  9
$DIMEXE
 40
0.18
  9
$DIMTP
 40
0.0
  9
$DIMTM
 40
0.0
  9
$DIMTXT
 40
0.18
  9
$DIMCEN
 40
0.09
  9
$DIMTSZ
 40
0.0
  9
$DIMTOL
 70
     0
  9
$DIMLIM
 70
     0
  9
$DIMTIH
 70
     1
  9
$DIMTOH
 70
     1
  9
$DIMSE1
 70
     0
  9
$DIMSE2
 70
     0
  9
$DIMTAD
 70
     0
  9
$DIMZIN
 70
     0
  9
$DIMBLK
  1

  9
$DIMASO
 70
     1
  9
$DIMSHO
 70
     1
  9
$DIMPOST
  1

  9
$DIMAPOST
  1

  9
$DIMALT
 70
     0
  9
$DIMALTD
 70
     2
  9
$DIMALTF
 40
25.4
  9
$DIMLFAC
 40
1.0
  9
$DIMTOFL
 70
     0
  9
$DIMTVP
 40
0.0
  9
$DIMTIX
 70
     0
  9
$DIMSOXD
 70
     0
  9
$DIMSAH
 70
     0
  9
$DIMBLK1
  1

  9
$DIMBLK2
  1

  9
$DIMSTYLE
  2
STANDARD
  9
$DIMCLRD
 70
     0
  9
$DIMCLRE
 70
     0
  9
$DIMCLRT
 70
     0
  9
$DIMTFAC
 40
1.0
  9
$DIMGAP
 40
0.09
  9
$DIMJUST
 70
     0
  9
$DIMSD1
 70
     0
  9
$DIMSD2
 70
     0
  9
$DIMTOLJ
 70
     1
  9
$DIMTZIN
 70
     0
  9
$DIMALTZ
 70
     0
  9
$DIMALTTZ
 70
     0
  9
$DIMFIT
 70
     3
  9
$DIMUPT
 70
     0
  9
$DIMUNIT
 70
     2
  9
$DIMDEC
 70
     4
  9
$DIMTDEC
 70
     4
  9
$DIMALTU
 70
     2
  9
$DIMALTTD
 70
     2
  9
$DIMTXSTY
  7
STANDARD
  9
$DIMAUNIT
 70
     0
  9
$LUNITS
 70
     2
  9
$LUPREC
 70
     4
  9
$SKETCHINC
 40
0.1
  9
$FILLETRAD
 40
0.5
  9
$AUNITS
 70
     0
  9
$AUPREC
 70
     0
  9
$MENU
  1
.
  9
$ELEVATION
 40
0.0
  9
$PELEVATION
 40
0.0
  9
$THICKNESS
 40
0.0
  9
$LIMCHECK
 70
     0
  9
$BLIPMODE
 70
     0
  9
$CHAMFERA
 40
0.5
  9
$CHAMFERB
 40
0.5
  9
$CHAMFERC
 40
1.0
  9
$CHAMFERD
 40
0.0
  9
$SKPOLY
 70
     0
  9
$TDCREATE
 40
2451956.624155092
  9
$TDUPDATE
 40
2451956.716979166
  9
$TDINDWG
 40
0.0928240741
  9
$TDUSRTIMER
 40
0.0928240741
  9
$USRTIMER
 70
     1
  9
$ANGBASE
 50
0.0
  9
$ANGDIR
 70
     0
  9
$PDMODE
 70
     0
  9
$PDSIZE
 40
0.0
  9
$PLINEWID
 40
0.0
  9
$COORDS
 70
     1
  9
$SPLFRAME
 70
     0
  9
$SPLINETYPE
 70
     6
  9
$SPLINESEGS
 70
     8
  9
$ATTDIA
 70
     0
  9
$ATTREQ
 70
     1
  9
$HANDLING
 70
     1
  9
$HANDSEED
  5
1D8
  9
$SURFTAB1
 70
     6
  9
$SURFTAB2
 70
     6
  9
$SURFTYPE
 70
     6
  9
$SURFU
 70
     6
  9
$SURFV
 70
     6
  9
$UCSNAME
  2

  9
$UCSORG
 10
0.0
 20
0.0
 30
0.0
  9
$UCSXDIR
 10
1.0
 20
0.0
 30
0.0
  9
$UCSYDIR
 10
0.0
 20
1.0
 30
0.0
  9
$PUCSNAME
  2

  9
$PUCSORG
 10
0.0
 20
0.0
 30
0.0
  9
$PUCSXDIR
 10
1.0
 20
0.0
 30
0.0
  9
$PUCSYDIR
 10
0.0
 20
1.0
 30
0.0
  9
$USERI1
 70
     0
  9
$USERI2
 70
     0
  9
$USERI3
 70
     0
  9
$USERI4
 70
     0
  9
$USERI5
 70
     0
  9
$USERR1
 40
0.0
  9
$USERR2
 40
0.0
  9
$USERR3
 40
0.0
  9
$USERR4
 40
0.0
  9
$USERR5
 40
0.0
  9
$WORLDVIEW
 70
     1
  9
$SHADEDGE
 70
     3
  9
$SHADEDIF
 70
    70
  9
$TILEMODE
 70
     1
  9
$MAXACTVP
 70
    48
  9
$PINSBASE
 10
0.0
 20
0.0
 30
0.0
  9
$PLIMCHECK
 70
     0
  9
$PEXTMIN
 10
1.000000E+20
 20
1.000000E+20
 30
1.000000E+20
  9
$PEXTMAX
 10
-1.000000E+20
 20
-1.000000E+20
 30
-1.000000E+20
  9
$PLIMMIN
 10
0.0
 20
0.0
  9
$PLIMMAX
 10
12.0
 20
9.0
  9
$UNITMODE
 70
     0
  9
$VISRETAIN
 70
     1
  9
$PLINEGEN
 70
     0
  9
$PSLTSCALE
 70
     1
  9
$TREEDEPTH
 70
  3020
  9
$PICKSTYLE
 70
     1
  9
$CMLSTYLE
  2
STANDARD
  9
$CMLJUST
 70
     0
  9
$CMLSCALE
 40
1.0
  9
$PROXYGRAPHICS
 70
     1
  9
$MEASUREMENT
 70
     0
  0
ENDSEC
  0
SECTION
  2
CLASSES
  0
CLASS
  1
LWPOLYLINE
  2
AcDbPolyline
  3
"AutoCAD"
 90
        0
280
     0
281
     1
  0
CLASS
  1
DICTIONARYVAR
  2
AcDbDictionaryVar
  3
"AutoCAD"
 90
        0
280
     0
281
     0
  0
CLASS
  1
HATCH
  2
AcDbHatch
  3
"ACAD_SEDONA"
 90
        0
280
     0
281
     1
  0
ENDSEC
  0
SECTION
  2
TABLES
  0
TABLE
  2
VPORT
  5
8
100
AcDbSymbolTable
 70
     1
  0
VPORT
  5
1D3
100
AcDbSymbolTableRecord
100
AcDbViewportTableRecord
  2
*ACTIVE
 70
     0
 10
0.0
 20
0.0
 11
1.0
 21
1.0
 12
8.664742
 22
1.008326
 13
0.0
 23
0.0
 14
0.5
 24
0.5
 15
0.5
 25
0.5
 16
0.0
 26
0.0
 36
1.0
 17
0.0
 27
0.0
 37
0.0
 40
17.8479
 41
1.525
 42
50.0
 43
0.0
 44
0.0
 50
0.0
 51
0.0
 71
     0
 72
   100
 73
     1
 74
     1
 75
     0
 76
     0
 77
     0
 78
     0
  0
ENDTAB
  0
TABLE
  2
LTYPE
  5
5
100
AcDbSymbolTable
 70
     2
  0
LTYPE
  5
12
100
AcDbSymbolTableRecord
100
AcDbLinetypeTableRecord
  2
BYBLOCK
 70
     0
  3

 72
    65
 73
     0
 40
0.0
  0
LTYPE
  5
13
100
AcDbSymbolTableRecord
100
AcDbLinetypeTableRecord
  2
BYLAYER
 70
     0
  3

 72
    65
 73
     0
 40
0.0
  0
LTYPE
  5
14
100
AcDbSymbolTableRecord
100
AcDbLinetypeTableRecord
  2
CONTINUOUS
 70
     0
  3
Solid line
 72
    65
 73
     0
 40
0.0
  0
LTYPE
  5
28
100
AcDbSymbolTableRecord
100
AcDbLinetypeTableRecord
  2
CENTER
 70
     0
  3
Center ____ _ ____ _ ____ _ ____ _ ____ _ ____
 72
    65
 73
     4
 40
2.0
 49
1.25
 74
     0
 49
-0.25
 74
     0
 49
0.25
 74
     0
 49
-0.25
 74
     0
  0
ENDTAB
  0
TABLE
  2
LAYER
  5
2
100
AcDbSymbolTable
 70
     2
  0
LAYER
  5
E
100
AcDbSymbolTableRecord
100
AcDbLayerTableRecord
  2
0
 70
     0
 62
     7
  6
CONTINUOUS
  0
LAYER
  5
75
100
AcDbSymbolTableRecord
100
AcDbLayerTableRecord
  2
DEFPOINTS
 70
     0
 62
     7
  6
CONTINUOUS
  0
ENDTAB
  0
TABLE
  2
STYLE
  5
3
100
AcDbSymbolTable
 70
     2
  0
STYLE
  5
F
100
AcDbSymbolTableRecord
100
AcDbTextStyleTableRecord
  2
STANDARD
 70
     0
 40
0.0
 41
1.0
 50
0.0
 71
     0
 42
0.2
  3
txt
  4

  0
STYLE
  5
27
100
AcDbSymbolTableRecord
100
AcDbTextStyleTableRecord
  2

 70
     1
 40
0.0
 41
1.0
 50
0.0
 71
     0
 42
0.2
  3
ltypeshp.shx
  4

  0
ENDTAB
  0
TABLE
  2
VIEW
  5
6
100
AcDbSymbolTable
 70
     0
  0
ENDTAB
  0
TABLE
  2
UCS
  5
7
100
AcDbSymbolTable
 70
     0
  0
ENDTAB
  0
TABLE
  2
APPID
  5
9
100
AcDbSymbolTable
 70
     1
  0
APPID
  5
10
100
AcDbSymbolTableRecord
100
AcDbRegAppTableRecord
  2
ACAD
 70
     0
  0
ENDTAB
  0
TABLE
  2
DIMSTYLE
  5
A
100
AcDbSymbolTable
 70
     1
  0
DIMSTYLE
105
1D
102
{ACAD_REACTORS
330
7C
330
8C
330
A0
330
BB
330
DA
330
F8
330
107
330
11F
330
186
330
194
330
1A0
330
1CC
102
}
100
AcDbSymbolTableRecord
100
AcDbDimStyleTableRecord
  2
STANDARD
 70
     0
  3

  4

  5

  6

  7

 40
1.0
 41
0.18
 42
0.0625
 43
0.38
 44
0.18
 45
0.0
 46
0.0
 47
0.0
 48
0.0
140
0.18
141
0.09
142
0.0
143
25.4
144
1.0
145
0.0
146
1.0
147
0.09
 71
     0
 72
     0
 73
     1
 74
     1
 75
     0
 76
     0
 77
     0
 78
     0
170
     0
171
     2
172
     0
173
     0
174
     0
175
     0
176
     0
177
     0
178
     0
270
     2
271
     4
272
     4
273
     2
274
     2
340
F
275
     0
280
     0
281
     0
282
     0
283
     1
284
     0
285
     0
286
     0
287
     3
288
     0
  0
ENDTAB
  0
TABLE
  2
BLOCK_RECORD
  5
1
100
AcDbSymbolTable
 70
    20
  0
BLOCK_RECORD
  5
18
100
AcDbSymbolTableRecord
100
AcDbBlockTableRecord
  2
*MODEL_SPACE
  0
BLOCK_RECORD
  5
15
100
AcDbSymbolTableRecord
100
AcDbBlockTableRecord
  2
*PAPER_SPACE
  0
BLOCK_RECORD
  5
36
100
AcDbSymbolTableRecord
100
AcDbBlockTableRecord
  2
A$C07DA42DA
  0
BLOCK_RECORD
  5
59
100
AcDbSymbolTableRecord
100
AcDbBlockTableRecord
  2
A$C791503A0
  0
BLOCK_RECORD
  5
62
100
AcDbSymbolTableRecord
100
AcDbBlockTableRecord
  2
A$C737C6FE4
  0
BLOCK_RECORD
  5
6B
100
AcDbSymbolTableRecord
100
AcDbBlockTableRecord
  2
*D3
  0
BLOCK_RECORD
  5
7D
100
AcDbSymbolTableRecord
100
AcDbBlockTableRecord
  2
*D4
  0
BLOCK_RECORD
  5
91
100
AcDbSymbolTableRecord
100
AcDbBlockTableRecord
  2
*D5
  0
BLOCK_RECORD
  5
AD
100
AcDbSymbolTableRecord
100
AcDbBlockTableRecord
  2
*D7
  0
BLOCK_RECORD
  5
CC
100
AcDbSymbolTableRecord
100
AcDbBlockTableRecord
  2
*D9
  0
BLOCK_RECORD
  5
ED
100
AcDbSymbolTableRecord
100
AcDbBlockTableRecord
  2
*D11
  0
BLOCK_RECORD
  5
F9
100
AcDbSymbolTableRecord
100
AcDbBlockTableRecord
  2
*D12
  0
BLOCK_RECORD
  5
111
100
AcDbSymbolTableRecord
100
AcDbBlockTableRecord
  2
*D13
  0
BLOCK_RECORD
  5
128
100
AcDbSymbolTableRecord
100
AcDbBlockTableRecord
  2
A$C63E652AE
  0
BLOCK_RECORD
  5
179
100
AcDbSymbolTableRecord
100
AcDbBlockTableRecord
  2
*D16
  0
BLOCK_RECORD
  5
187
100
AcDbSymbolTableRecord
100
AcDbBlockTableRecord
  2
*D17
  0
BLOCK_RECORD
  5
195
100
AcDbSymbolTableRecord
100
AcDbBlockTableRecord
  2
*D18
  0
BLOCK_RECORD
  5
1BF
100
AcDbSymbolTableRecord
100
AcDbBlockTableRecord
  2
*D19
  0
ENDTAB
  0
ENDSEC
  0
SECTION
  2
BLOCKS
  0
BLOCK
  5
19
100
AcDbEntity
  8
0
100
AcDbBlockBegin
  2
*MODEL_SPACE
 70
     0
 10
0.0
 20
0.0
 30
0.0
  3
*MODEL_SPACE
  1

  0
ENDBLK
  5
1A
100
AcDbEntity
  8
0
100
AcDbBlockEnd
  0
BLOCK
  5
16
100
AcDbEntity
 67
     1
  8
0
100
AcDbBlockBegin
  2
*PAPER_SPACE
 70
     0
 10
0.0
 20
0.0
 30
0.0
  3
*PAPER_SPACE
  1

  0
ENDBLK
  5
17
100
AcDbEntity
 67
     1
  8
0
100
AcDbBlockEnd
  0
BLOCK
  5
38
100
AcDbEntity
  8
0
100
AcDbBlockBegin
  2
A$C07DA42DA
 70
     0
 10
0.0
 20
0.0
 30
0.0
  3
A$C07DA42DA
  1

  0
LWPOLYLINE
  5
37
100
AcDbEntity
  8
0
100
AcDbPolyline
 90
        4
 70
     1
 43
0.0
 10
0.176777
 20
0.0
 10
0.266579
 20
0.089803
 10
0.089803
 20
0.266579
 10
0.0
 20
0.176777
  0
ENDBLK
  5
39
100
AcDbEntity
  8
0
100
AcDbBlockEnd
  0
BLOCK
  5
5D
100
AcDbEntity
  8
0
100
AcDbBlockBegin
  2
A$C791503A0
 70
     0
 10
0.0
 20
0.0
 30
0.0
  3
A$C791503A0
  1

  0
LINE
  5
5A
100
AcDbEntity
  8
0
100
AcDbLine
 10
0.0
 20
0.037056
 30
0.0
 11
0.089803
 21
0.126859
 31
0.0
  0
LINE
  5
5B
100
AcDbEntity
  8
0
100
AcDbLine
 10
0.089803
 20
0.126859
 30
0.0
 11
0.126859
 21
0.089803
 31
0.0
  0
LINE
  5
5C
100
AcDbEntity
  8
0
100
AcDbLine
 10
0.037056
 20
0.0
 30
0.0
 11
0.0
 21
0.037056
 31
0.0
  0
ENDBLK
  5
5E
100
AcDbEntity
  8
0
100
AcDbBlockEnd
  0
BLOCK
  5
64
100
AcDbEntity
  8
0
100
AcDbBlockBegin
  2
A$C737C6FE4
 70
     0
 10
0.0
 20
0.0
 30
0.0
  3
A$C737C6FE4
  1

  0
INSERT
  5
63
100
AcDbEntity
  8
0
100
AcDbBlockReference
  2
A$C791503A0
 10
-0.020247
 20
0.05718
 30
0.0
 50
303.12
  0
ENDBLK
  5
65
100
AcDbEntity
  8
0
100
AcDbBlockEnd
  0
BLOCK
  5
6C
100
AcDbEntity
  8
0
100
AcDbBlockBegin
  2
*D3
 70
     1
 10
0.0
 20
0.0
 30
0.0
  3
*D3
  1

  0
LINE
  5
6D
100
AcDbEntity
  8
0
  6
BYBLOCK
 62
     0
100
AcDbLine
 10
0.424592
 20
2.018323
 30
0.0
 11
0.559904
 21
2.661538
 31
0.0
  0
LINE
  5
6E
100
AcDbEntity
  8
0
  6
BYBLOCK
 62
     0
100
AcDbLine
 10
0.0
 20
2.0625
 30
0.0
 11
0.0
 21
2.719793
 31
0.0
  0
ARC
  5
6F
100
AcDbEntity
  8
0
  6
BYBLOCK
 62
     0
100
AcDbCircle
 10
0.0
 20
0.0
 30
0.0
 40
2.539793
100
AcDbArc
 50
74.058489
 51
78.12
  0
LINE
  5
70
100
AcDbEntity
  8
0
  6
BYBLOCK
 62
     0
100
AcDbLine
 10
0.697569
 20
2.44212
 30
0.0
 11
0.877569
 21
2.44212
 31
0.0
  0
ARC
  5
71
100
AcDbEntity
  8
0
  6
BYBLOCK
 62
     0
100
AcDbCircle
 10
0.0
 20
0.0
 30
0.0
 40
2.539793
100
AcDbArc
 50
82.181511
 51
85.938489
  0
SOLID
  5
72
100
AcDbEntity
  8
0
  6
BYBLOCK
 62
     0
100
AcDbTrace
 10
0.350633
 20
2.545741
 30
0.0
 11
0.34037
 21
2.486626
 31
0.0
 12
0.522849
 22
2.485393
 32
0.0
 13
0.522849
 23
2.485393
 33
0.0
  0
SOLID
  5
73
100
AcDbEntity
  8
0
  6
BYBLOCK
 62
     0
100
AcDbTrace
 10
0.178824
 20
2.503434
 30
0.0
 11
0.18095
 21
2.563396
 31
0.0
 12
0.0
 22
2.539793
 32
0.0
 13
0.0
 23
2.539793
 33
0.0
  0
MTEXT
  5
74
100
AcDbEntity
  8
0
  6
BYBLOCK
 62
     0
100
AcDbMText
 10
1.477569
 20
2.44212
 30
0.0
 40
0.18
 41
0.0
 71
     5
 72
     1
  1
\A1;11.8800°
  0
POINT
  5
76
100
AcDbEntity
  8
DEFPOINTS
  6
BYBLOCK
 62
     0
100
AcDbPoint
 10
0.175398
 20
2.53373
 30
0.0
  0
POINT
  5
77
100
AcDbEntity
  8
DEFPOINTS
  6
BYBLOCK
 62
     0
100
AcDbPoint
 10
0.0
 20
-2.0
 30
0.0
  0
POINT
  5
78
100
AcDbEntity
  8
DEFPOINTS
  6
BYBLOCK
 62
     0
100
AcDbPoint
 10
0.0
 20
0.0
 30
0.0
  0
POINT
  5
79
100
AcDbEntity
  8
DEFPOINTS
  6
BYBLOCK
 62
     0
100
AcDbPoint
 10
0.411725
 20
1.957162
 30
0.0
  0
POINT
  5
7A
100
AcDbEntity
  8
DEFPOINTS
  6
BYBLOCK
 62
     0
100
AcDbPoint
 10
0.0
 20
2.0
 30
0.0
  0
ENDBLK
  5
7B
100
AcDbEntity
  8
0
100
AcDbBlockEnd
  0
BLOCK
  5
7E
100
AcDbEntity
  8
0
100
AcDbBlockBegin
  2
*D4
 70
     1
 10
0.0
 20
0.0
 30
0.0
  3
*D4
  1

  0
LINE
  5
7F
100
AcDbEntity
  8
0
  6
BYBLOCK
 62
     0
100
AcDbLine
 10
0.0
 20
2.0625
 30
0.0
 11
0.0
 21
2.617964
 31
0.0
  0
LINE
  5
80
100
AcDbEntity
  8
0
  6
BYBLOCK
 62
     0
100
AcDbLine
 10
-1.458408
 20
1.458408
 30
0.0
 11
-1.85118
 21
1.85118
 31
0.0
  0
ARC
  5
81
100
AcDbEntity
  8
0
  6
BYBLOCK
 62
     0
100
AcDbCircle
 10
0.0
 20
0.0
 30
0.0
 40
2.437964
100
AcDbArc
 50
94.23123
 51
97.138661
  0
ARC
  5
82
100
AcDbEntity
  8
0
  6
BYBLOCK
 62
     0
100
AcDbCircle
 10
0.0
 20
0.0
 30
0.0
 40
2.437964
100
AcDbArc
 50
121.783173
 51
130.76877
  0
SOLID
  5
83
100
AcDbEntity
  8
0
  6
BYBLOCK
 62
     0
100
AcDbTrace
 10
-0.180985
 20
2.461298
 30
0.0
 11
-0.17877
 21
2.401339
 31
0.0
 12
0.0
 22
2.437964
 32
0.0
 13
0.0
 23
2.437964
 33
0.0
  0
SOLID
  5
84
100
AcDbEntity
  8
0
  6
BYBLOCK
 62
     0
100
AcDbTrace
 10
-1.571594
 20
1.824413
 30
0.0
 11
-1.612425
 21
1.868376
 31
0.0
 12
-1.723901
 22
1.723901
 32
0.0
 13
-1.723901
 23
1.723901
 33
0.0
  0
MTEXT
  5
85
100
AcDbEntity
  8
0
  6
BYBLOCK
 62
     0
100
AcDbMText
 10
-0.932968
 20
2.252385
 30
0.0
 40
0.18
 41
0.0
 71
     5
 72
     1
  1
\A1;45.0000°
  0
POINT
  5
86
100
AcDbEntity
  8
DEFPOINTS
  6
BYBLOCK
 62
     0
100
AcDbPoint
 10
-0.630991
 20
2.354892
 30
0.0
  0
POINT
  5
87
100
AcDbEntity
  8
DEFPOINTS
  6
BYBLOCK
 62
     0
100
AcDbPoint
 10
0.0
 20
0.0
 30
0.0
  0
POINT
  5
88
100
AcDbEntity
  8
DEFPOINTS
  6
BYBLOCK
 62
     0
100
AcDbPoint
 10
0.0
 20
-2.0
 30
0.0
  0
POINT
  5
89
100
AcDbEntity
  8
DEFPOINTS
  6
BYBLOCK
 62
     0
100
AcDbPoint
 10
0.0
 20
2.0
 30
0.0
  0
POINT
  5
8A
100
AcDbEntity
  8
DEFPOINTS
  6
BYBLOCK
 62
     0
100
AcDbPoint
 10
-1.414214
 20
1.414214
 30
0.0
  0
ENDBLK
  5
8B
100
AcDbEntity
  8
0
100
AcDbBlockEnd
  0
BLOCK
  5
92
100
AcDbEntity
  8
0
100
AcDbBlockBegin
  2
*D5
 70
     1
 10
0.0
 20
0.0
 30
0.0
  3
*D5
  1

  0
LINE
  5
93
100
AcDbEntity
  8
0
  6
BYBLOCK
 62
     0
100
AcDbLine
 10
1.458408
 20
1.458408
 30
0.0
 11
2.592823
 21
2.592823
 31
0.0
  0
LINE
  5
94
100
AcDbEntity
  8
0
  6
BYBLOCK
 62
     0
100
AcDbLine
 10
0.0
 20
2.0625
 30
0.0
 11
0.0
 21
3.666806
 31
0.0
  0
ARC
  5
95
100
AcDbEntity
  8
0
  6
BYBLOCK
 62
     0
100
AcDbCircle
 10
0.0
 20
0.0
 30
0.0
 40
3.486806
100
AcDbArc
 50
47.958119
 51
60.721911
  0
ARC
  5
96
100
AcDbEntity
  8
0
  6
BYBLOCK
 62
     0
100
AcDbCircle
 10
0.0
 20
0.0
 30
0.0
 40
3.486806
100
AcDbArc
 50
77.291706
 51
87.041881
  0
SOLID
  5
97
100
AcDbEntity
  8
0
  6
BYBLOCK
 62
     0
100
AcDbTrace
 10
2.355681
 20
2.611249
 30
0.0
 11
2.314363
 21
2.567742
 31
0.0
 12
2.465544
 22
2.465544
 32
0.0
 13
2.465544
 23
2.465544
 33
0.0
  0
SOLID
  5
98
100
AcDbEntity
  8
0
  6
BYBLOCK
 62
     0
100
AcDbTrace
 10
0.179166
 20
3.45217
 30
0.0
 11
0.180714
 21
3.51215
 31
0.0
 12
0.0
 22
3.486806
 32
0.0
 13
0.0
 23
3.486806
 33
0.0
  0
MTEXT
  5
99
100
AcDbEntity
  8
0
  6
BYBLOCK
 62
     0
100
AcDbMText
 10
1.334343
 20
3.221389
 30
0.0
 40
0.18
 41
0.0
 71
     5
 72
     1
  1
\A1;45.0000°
  0
POINT
  5
9A
100
AcDbEntity
  8
DEFPOINTS
  6
BYBLOCK
 62
     0
100
AcDbPoint
 10
1.743403
 20
3.019662
 30
0.0
  0
POINT
  5
9B
100
AcDbEntity
  8
DEFPOINTS
  6
BYBLOCK
 62
     0
100
AcDbPoint
 10
0.0
 20
-2.0
 30
0.0
  0
POINT
  5
9C
100
AcDbEntity
  8
DEFPOINTS
  6
BYBLOCK
 62
     0
100
AcDbPoint
 10
0.0
 20
0.0
 30
0.0
  0
POINT
  5
9D
100
AcDbEntity
  8
DEFPOINTS
  6
BYBLOCK
 62
     0
100
AcDbPoint
 10
1.414214
 20
1.414214
 30
0.0
  0
POINT
  5
9E
100
AcDbEntity
  8
DEFPOINTS
  6
BYBLOCK
 62
     0
100
AcDbPoint
 10
0.0
 20
2.0
 30
0.0
  0
ENDBLK
  5
9F
100
AcDbEntity
  8
0
100
AcDbBlockEnd
  0
BLOCK
  5
AE
100
AcDbEntity
  8
0
100
AcDbBlockBegin
  2
*D7
 70
     1
 10
0.0
 20
0.0
 30
0.0
  3
*D7
  1

  0
LINE
  5
AF
100
AcDbEntity
  8
0
  6
BYBLOCK
 62
     0
100
AcDbLine
 10
0.701889
 20
0.878666
 30
0.0
 11
1.304626
 21
1.481403
 31
0.0
  0
LINE
  5
B0
100
AcDbEntity
  8
0
  6
BYBLOCK
 62
     0
100
AcDbLine
 10
0.878666
 20
0.701889
 30
0.0
 11
1.481403
 21
1.304626
 31
0.0
  0
LINE
  5
B1
100
AcDbEntity
  8
0
  6
BYBLOCK
 62
     0
100
AcDbLine
 10
1.050068
 20
1.481403
 30
0.0
 11
0.922789
 21
1.608682
 31
0.0
  0
LINE
  5
B2
100
AcDbEntity
  8
0
  6
BYBLOCK
 62
     0
100
AcDbLine
 10
1.481403
 20
1.050068
 30
0.0
 11
1.608682
 21
0.922789
 31
0.0
  0
LINE
  5
B3
100
AcDbEntity
  8
0
  6
BYBLOCK
 62
     0
100
AcDbLine
 10
1.608682
 20
0.922789
 30
0.0
 11
1.788682
 21
0.922789
 31
0.0
  0
SOLID
  5
B4
100
AcDbEntity
  8
0
  6
BYBLOCK
 62
     0
100
AcDbTrace
 10
1.071281
 20
1.502616
 30
0.0
 11
1.028855
 21
1.46019
 31
0.0
 12
1.177347
 22
1.354124
 32
0.0
 13
1.177347
 23
1.354124
 33
0.0
  0
SOLID
  5
B5
100
AcDbEntity
  8
0
  6
BYBLOCK
 62
     0
100
AcDbTrace
 10
1.502616
 20
1.071281
 30
0.0
 11
1.46019
 21
1.028855
 31
0.0
 12
1.354124
 22
1.177347
 32
0.0
 13
1.354124
 23
1.177347
 33
0.0
  0
MTEXT
  5
B6
100
AcDbEntity
  8
0
  6
BYBLOCK
 62
     0
100
AcDbMText
 10
2.283682
 20
0.922789
 30
0.0
 40
0.18
 41
0.0
 71
     5
 72
     1
  1
\A1;0.2500
  0
POINT
  5
B7
100
AcDbEntity
  8
DEFPOINTS
  6
BYBLOCK
 62
     0
100
AcDbPoint
 10
0.657695
 20
0.834472
 30
0.0
  0
POINT
  5
B8
100
AcDbEntity
  8
DEFPOINTS
  6
BYBLOCK
 62
     0
100
AcDbPoint
 10
0.834472
 20
0.657695
 30
0.0
  0
POINT
  5
B9
100
AcDbEntity
  8
DEFPOINTS
  6
BYBLOCK
 62
     0
100
AcDbPoint
 10
1.354124
 20
1.177347
 30
0.0
  0
ENDBLK
  5
BA
100
AcDbEntity
  8
0
100
AcDbBlockEnd
  0
BLOCK
  5
CD
100
AcDbEntity
  8
0
100
AcDbBlockBegin
  2
*D9
 70
     1
 10
0.0
 20
0.0
 30
0.0
  3
*D9
  1

  0
LINE
  5
CE
100
AcDbEntity
  8
0
  6
BYBLOCK
 62
     0
100
AcDbLine
 10
0.685186
 20
0.596798
 30
0.0
 11
1.508903
 21
-0.226919
 31
0.0
  0
LINE
  5
CF
100
AcDbEntity
  8
0
  6
BYBLOCK
 62
     0
100
AcDbLine
 10
0.795495
 20
0.707107
 30
0.0
 11
1.619212
 21
-0.11661
 31
0.0
  0
LINE
  5
D0
100
AcDbEntity
  8
0
  6
BYBLOCK
 62
     0
100
AcDbLine
 10
1.254345
 20
-0.226919
 30
0.0
 11
1.127065
 21
-0.354198
 31
0.0
  0
LINE
  5
D1
100
AcDbEntity
  8
0
  6
BYBLOCK
 62
     0
100
AcDbLine
 10
1.619212
 20
0.137949
 30
0.0
 11
1.746491
 21
0.265228
 31
0.0
  0
LINE
  5
D2
100
AcDbEntity
  8
0
  6
BYBLOCK
 62
     0
100
AcDbLine
 10
1.746491
 20
0.265228
 30
0.0
 11
1.926491
 21
0.265228
 31
0.0
  0
SOLID
  5
D3
100
AcDbEntity
  8
0
  6
BYBLOCK
 62
     0
100
AcDbTrace
 10
1.233132
 20
-0.205705
 30
0.0
 11
1.275558
 21
-0.248132
 31
0.0
 12
1.381624
 22
-0.099639
 32
0.0
 13
1.381624
 23
-0.099639
 33
0.0
  0
SOLID
  5
D4
100
AcDbEntity
  8
0
  6
BYBLOCK
 62
     0
100
AcDbTrace
 10
1.597999
 20
0.159162
 30
0.0
 11
1.640425
 21
0.116735
 31
0.0
 12
1.491933
 22
0.010669
 32
0.0
 13
1.491933
 23
0.010669
 33
0.0
  0
MTEXT
  5
D5
100
AcDbEntity
  8
0
  6
BYBLOCK
 62
     0
100
AcDbMText
 10
2.406491
 20
0.265228
 30
0.0
 40
0.18
 41
0.0
 71
     5
 72
     1
  1
\A1;0.1560
  0
POINT
  5
D6
100
AcDbEntity
  8
DEFPOINTS
  6
BYBLOCK
 62
     0
100
AcDbPoint
 10
0.640992
 20
0.640992
 30
0.0
  0
POINT
  5
D7
100
AcDbEntity
  8
DEFPOINTS
  6
BYBLOCK
 62
     0
100
AcDbPoint
 10
0.751301
 20
0.751301
 30
0.0
  0
POINT
  5
D8
100
AcDbEntity
  8
DEFPOINTS
  6
BYBLOCK
 62
     0
100
AcDbPoint
 10
1.491933
 20
0.010669
 30
0.0
  0
ENDBLK
  5
D9
100
AcDbEntity
  8
0
100
AcDbBlockEnd
  0
BLOCK
  5
EE
100
AcDbEntity
  8
0
100
AcDbBlockBegin
  2
*D11
 70
     1
 10
0.0
 20
0.0
 30
0.0
  3
*D11
  1

  0
LINE
  5
EF
100
AcDbEntity
  8
0
  6
BYBLOCK
 62
     0
100
AcDbLine
 10
-1.976156
 20
-0.541551
 30
0.0
 11
-1.796156
 21
-0.541551
 31
0.0
  0
LINE
  5
F0
100
AcDbEntity
  8
0
  6
BYBLOCK
 62
     0
100
AcDbLine
 10
-1.796156
 20
-0.541551
 30
0.0
 11
-1.189605
 21
-0.358673
 31
0.0
  0
MTEXT
  5
F1
100
AcDbEntity
  8
0
  6
BYBLOCK
 62
     0
100
AcDbMText
 10
-2.561156
 20
-0.541551
 30
0.0
 40
0.18
 41
0.0
 71
     5
 72
     1
  1
\A1;\U+22052.1250
  0
SOLID
  5
F2
100
AcDbEntity
  8
0
  6
BYBLOCK
 62
     0
100
AcDbTrace
 10
-1.198265
 20
-0.32995
 30
0.0
 11
-1.180945
 21
-0.387396
 31
0.0
 12
-1.017268
 22
-0.306712
 32
0.0
 13
-1.017268
 23
-0.306712
 33
0.0
  0
LINE
  5
F3
100
AcDbEntity
  8
0
  6
BYBLOCK
 62
     0
100
AcDbLine
 10
-0.09
 20
0.0
 30
0.0
 11
0.09
 21
0.0
 31
0.0
  0
LINE
  5
F4
100
AcDbEntity
  8
0
  6
BYBLOCK
 62
     0
100
AcDbLine
 10
0.0
 20
-0.09
 30
0.0
 11
0.0
 21
0.09
 31
0.0
  0
POINT
  5
F5
100
AcDbEntity
  8
DEFPOINTS
  6
BYBLOCK
 62
     0
100
AcDbPoint
 10
-1.017268
 20
-0.306712
 30
0.0
  0
POINT
  5
F6
100
AcDbEntity
  8
DEFPOINTS
  6
BYBLOCK
 62
     0
100
AcDbPoint
 10
1.017268
 20
0.306712
 30
0.0
  0
ENDBLK
  5
F7
100
AcDbEntity
  8
0
100
AcDbBlockEnd
  0
BLOCK
  5
FA
100
AcDbEntity
  8
0
100
AcDbBlockBegin
  2
*D12
 70
     1
 10
0.0
 20
0.0
 30
0.0
  3
*D12
  1

  0
LINE
  5
FB
100
AcDbEntity
  8
0
  6
BYBLOCK
 62
     0
100
AcDbLine
 10
0.618718
 20
-0.707107
 30
0.0
 11
-0.689166
 21
-2.014992
 31
0.0
  0
LINE
  5
FC
100
AcDbEntity
  8
0
  6
BYBLOCK
 62
     0
100
AcDbLine
 10
0.707107
 20
-0.795495
 30
0.0
 11
-0.600778
 21
-2.10338
 31
0.0
  0
LINE
  5
FD
100
AcDbEntity
  8
0
  6
BYBLOCK
 62
     0
100
AcDbLine
 10
-0.689166
 20
-1.760433
 30
0.0
 11
-0.816446
 21
-1.633154
 31
0.0
  0
LINE
  5
FE
100
AcDbEntity
  8
0
  6
BYBLOCK
 62
     0
100
AcDbLine
 10
-0.34622
 20
-2.10338
 30
0.0
 11
-0.21894
 21
-2.230659
 31
0.0
  0
LINE
  5
FF
100
AcDbEntity
  8
0
  6
BYBLOCK
 62
     0
100
AcDbLine
 10
-0.21894
 20
-2.230659
 30
0.0
 11
-0.03894
 21
-2.230659
 31
0.0
  0
SOLID
  5
100
100
AcDbEntity
  8
0
  6
BYBLOCK
 62
     0
100
AcDbTrace
 10
-0.667953
 20
-1.73922
 30
0.0
 11
-0.71038
 21
-1.781646
 31
0.0
 12
-0.561887
 22
-1.887712
 32
0.0
 13
-0.561887
 23
-1.887712
 33
0.0
  0
SOLID
  5
101
100
AcDbEntity
  8
0
  6
BYBLOCK
 62
     0
100
AcDbTrace
 10
-0.325006
 20
-2.082167
 30
0.0
 11
-0.367433
 21
-2.124593
 31
0.0
 12
-0.473499
 22
-1.976101
 32
0.0
 13
-0.473499
 23
-1.976101
 33
0.0
  0
MTEXT
  5
102
100
AcDbEntity
  8
0
  6
BYBLOCK
 62
     0
100
AcDbMText
 10
0.44106
 20
-2.230659
 30
0.0
 40
0.18
 41
0.0
 71
     5
 72
     1
  1
\A1;0.1250
  0
POINT
  5
103
100
AcDbEntity
  8
DEFPOINTS
  6
BYBLOCK
 62
     0
100
AcDbPoint
 10
0.662913
 20
-0.662913
 30
0.0
  0
POINT
  5
104
100
AcDbEntity
  8
DEFPOINTS
  6
BYBLOCK
 62
     0
100
AcDbPoint
 10
0.751301
 20
-0.751301
 30
0.0
  0
POINT
  5
105
100
AcDbEntity
  8
DEFPOINTS
  6
BYBLOCK
 62
     0
100
AcDbPoint
 10
-0.473499
 20
-1.976101
 30
0.0
  0
ENDBLK
  5
106
100
AcDbEntity
  8
0
100
AcDbBlockEnd
  0
BLOCK
  5
112
100
AcDbEntity
  8
0
100
AcDbBlockBegin
  2
*D13
 70
     1
 10
0.0
 20
0.0
 30
0.0
  3
*D13
  1

  0
LINE
  5
113
100
AcDbEntity
  8
0
  6
BYBLOCK
 62
     0
100
AcDbLine
 10
0.0
 20
2.0625
 30
0.0
 11
0.0
 21
3.90997
 31
0.0
  0
ARC
  5
114
100
AcDbEntity
  8
0
  6
BYBLOCK
 62
     0
100
AcDbCircle
 10
0.0
 20
0.0
 30
0.0
 40
3.72997
100
AcDbArc
 50
92.765235
 51
96.668061
  0
ARC
  5
115
100
AcDbEntity
  8
0
  6
BYBLOCK
 62
     0
100
AcDbCircle
 10
0.0
 20
0.0
 30
0.0
 40
3.72997
100
AcDbArc
 50
114.458137
 51
120.354765
  0
SOLID
  5
116
100
AcDbEntity
  8
0
  6
BYBLOCK
 62
     0
100
AcDbTrace
 10
-0.180671
 20
3.755618
 30
0.0
 11
-0.179224
 21
3.695635
 31
0.0
 12
0.0
 22
3.72997
 32
0.0
 13
0.0
 23
3.72997
 33
0.0
  0
SOLID
  5
117
100
AcDbEntity
  8
0
  6
BYBLOCK
 62
     0
100
AcDbTrace
 10
-1.869169
 20
3.193125
 30
0.0
 11
-1.900731
 21
3.244153
 31
0.0
 12
-2.038034
 22
3.123954
 32
0.0
 13
-2.038034
 23
3.123954
 33
0.0
  0
MTEXT
  5
118
100
AcDbEntity
  8
0
  6
BYBLOCK
 62
     0
100
AcDbMText
 10
-1.063113
 20
3.575257
 30
0.0
 40
0.18
 41
0.0
 71
     5
 72
     1
  1
\A1;33.1200°
  0
POINT
  5
119
100
AcDbEntity
  8
DEFPOINTS
  6
BYBLOCK
 62
     0
100
AcDbPoint
 10
-0.714268
 20
3.660942
 30
0.0
  0
POINT
  5
11A
100
AcDbEntity
  8
DEFPOINTS
  6
BYBLOCK
 62
     0
100
AcDbPoint
 10
0.0
 20
-2.0
 30
0.0
  0
POINT
  5
11B
100
AcDbEntity
  8
DEFPOINTS
  6
BYBLOCK
 62
     0
100
AcDbPoint
 10
-1.639183
 20
2.512584
 30
0.0
  0
POINT
  5
11C
100
AcDbEntity
  8
DEFPOINTS
  6
BYBLOCK
 62
     0
100
AcDbPoint
 10
-2.185577
 20
3.350112
 30
0.0
  0
POINT
  5
11D
100
AcDbEntity
  8
DEFPOINTS
  6
BYBLOCK
 62
     0
100
AcDbPoint
 10
0.0
 20
2.0
 30
0.0
  0
ENDBLK
  5
11E
100
AcDbEntity
  8
0
100
AcDbBlockEnd
  0
BLOCK
  5
141
100
AcDbEntity
  8
0
100
AcDbBlockBegin
  2
A$C63E652AE
 70
     0
 10
0.0
 20
0.0
 30
0.0
  3
A$C63E652AE
  1

  0
LINE
  5
129
100
AcDbEntity
  8
0
100
AcDbLine
 10
1.606054
 20
0.424464
 30
0.0
 11
1.64311
 21
0.387408
 31
0.0
  0
LINE
  5
12A
100
AcDbEntity
  8
0
100
AcDbLine
 10
1.64311
 20
0.387408
 30
0.0
 11
1.732912
 21
0.477211
 31
0.0
  0
LINE
  5
12B
100
AcDbEntity
  8
0
100
AcDbLine
 10
1.633564
 20
0.30998
 30
0.0
 11
1.810341
 21
0.486757
 31
0.0
  0
ARC
  5
12C
100
AcDbEntity
  8
0
100
AcDbCircle
 10
0.307739
 20
0.30998
 30
0.0
 40
0.0625
100
AcDbArc
 50
316.685413
 51
133.314587
  0
ARC
  5
12D
100
AcDbEntity
  8
0
100
AcDbCircle
 10
1.05904
 20
1.061281
 30
0.0
 40
0.8395
100
AcDbArc
 50
139.338011
 51
253.781989
  0
ARC
  5
12E
100
AcDbEntity
  8
0
100
AcDbCircle
 10
1.05904
 20
1.061281
 30
0.0
 40
1.0625
100
AcDbArc
 50
138.370826
 51
221.629174
  0
ARC
  5
12F
100
AcDbEntity
  8
0
100
AcDbCircle
 10
1.05904
 20
1.061281
 30
0.0
 40
0.8395
100
AcDbArc
 50
262.458011
 51
310.661989
  0
ARC
  5
130
100
AcDbEntity
  8
0
100
AcDbCircle
 10
1.05904
 20
1.061281
 30
0.0
 40
1.0625
100
AcDbArc
 50
228.370826
 51
308.243673
  0
INSERT
  5
131
100
AcDbEntity
  8
0
100
AcDbBlockReference
  2
A$C737C6FE4
 10
0.948853
 20
0.255188
 30
0.0
 50
180.0
  0
LINE
  5
132
100
AcDbEntity
  8
0
100
AcDbLine
 10
1.633564
 20
0.30998
 30
0.0
 11
1.716735
 21
0.226809
 31
0.0
  0
ARC
  5
133
100
AcDbEntity
  8
0
100
AcDbCircle
 10
1.05904
 20
1.061281
 30
0.0
 40
0.8395
100
AcDbArc
 50
319.338011
 51
73.781989
  0
ARC
  5
134
100
AcDbEntity
  8
0
100
AcDbCircle
 10
1.05904
 20
1.061281
 30
0.0
 40
1.0625
100
AcDbArc
 50
51.756327
 51
131.629174
  0
ARC
  5
135
100
AcDbEntity
  8
0
100
AcDbCircle
 10
1.05904
 20
1.061281
 30
0.0
 40
0.8395
100
AcDbArc
 50
82.458011
 51
130.661989
  0
ARC
  5
136
100
AcDbEntity
  8
0
100
AcDbCircle
 10
0.307739
 20
1.812582
 30
0.0
 40
0.0625
100
AcDbArc
 50
226.685413
 51
43.314587
  0
LINE
  5
137
100
AcDbEntity
  8
0
100
AcDbLine
 10
0.474969
 20
1.735154
 30
0.0
 11
0.512025
 21
1.698098
 31
0.0
  0
LINE
  5
138
100
AcDbEntity
  8
0
100
AcDbLine
 10
0.422223
 20
1.608295
 30
0.0
 11
0.385167
 21
1.645351
 31
0.0
  0
LINE
  5
139
100
AcDbEntity
  8
0
100
AcDbLine
 10
0.385167
 20
1.645351
 30
0.0
 11
0.474969
 21
1.735154
 31
0.0
  0
INSERT
  5
13A
100
AcDbEntity
  8
0
100
AcDbBlockReference
  2
A$C791503A0
 10
1.148979
 20
1.924554
 30
0.0
 50
303.12
  0
LINE
  5
13B
100
AcDbEntity
  8
0
100
AcDbLine
 10
1.78842
 20
1.613885
 30
0.0
 11
1.893511
 21
1.718976
 31
0.0
  0
LINE
  5
13C
100
AcDbEntity
  8
0
100
AcDbLine
 10
1.893511
 20
0.403586
 30
0.0
 11
1.810341
 21
0.486757
 31
0.0
  0
LINE
  5
13D
100
AcDbEntity
  8
0
100
AcDbLine
 10
1.732912
 20
0.477211
 30
0.0
 11
1.695856
 21
0.514267
 31
0.0
  0
LINE
  5
13E
100
AcDbEntity
  8
0
100
AcDbLine
 10
1.716735
 20
1.895753
 30
0.0
 11
1.611644
 21
1.790662
 31
0.0
  0
LINE
  5
13F
100
AcDbEntity
  8
0
100
AcDbLine
 10
1.611644
 20
1.790662
 30
0.0
 11
1.78842
 21
1.613885
 31
0.0
  0
ARC
  5
140
100
AcDbEntity
  8
0
100
AcDbCircle
 10
1.05904
 20
1.061281
 30
0.0
 40
1.0625
100
AcDbArc
 50
321.756327
 51
38.243673
  0
ENDBLK
  5
142
100
AcDbEntity
  8
0
100
AcDbBlockEnd
  0
BLOCK
  5
17A
100
AcDbEntity
  8
0
100
AcDbBlockBegin
  2
*D16
 70
     1
 10
0.0
 20
0.0
 30
0.0
  3
*D16
  1

  0
LINE
  5
17B
100
AcDbEntity
  8
0
  6
BYBLOCK
 62
     0
100
AcDbLine
 10
10.0
 20
-1.125
 30
0.0
 11
10.0
 21
-1.933377
 31
0.0
  0
LINE
  5
17C
100
AcDbEntity
  8
0
  6
BYBLOCK
 62
     0
100
AcDbLine
 10
10.35
 20
-1.125
 30
0.0
 11
10.35
 21
-1.933377
 31
0.0
  0
LINE
  5
17D
100
AcDbEntity
  8
0
  6
BYBLOCK
 62
     0
100
AcDbLine
 10
9.82
 20
-1.753377
 30
0.0
 11
9.64
 21
-1.753377
 31
0.0
  0
LINE
  5
17E
100
AcDbEntity
  8
0
  6
BYBLOCK
 62
     0
100
AcDbLine
 10
10.53
 20
-1.753377
 30
0.0
 11
10.71
 21
-1.753377
 31
0.0
  0
SOLID
  5
17F
100
AcDbEntity
  8
0
  6
BYBLOCK
 62
     0
100
AcDbTrace
 10
9.82
 20
-1.723377
 30
0.0
 11
9.82
 21
-1.783377
 31
0.0
 12
10.0
 22
-1.753377
 32
0.0
 13
10.0
 23
-1.753377
 33
0.0
  0
SOLID
  5
180
100
AcDbEntity
  8
0
  6
BYBLOCK
 62
     0
100
AcDbTrace
 10
10.53
 20
-1.723377
 30
0.0
 11
10.53
 21
-1.783377
 31
0.0
 12
10.35
 22
-1.753377
 32
0.0
 13
10.35
 23
-1.753377
 33
0.0
  0
MTEXT
  5
181
100
AcDbEntity
  8
0
  6
BYBLOCK
 62
     0
100
AcDbMText
 10
11.205
 20
-1.753377
 30
0.0
 40
0.18
 41
0.0
 71
     5
 72
     1
  1
\A1;0.3500
  0
POINT
  5
182
100
AcDbEntity
  8
DEFPOINTS
  6
BYBLOCK
 62
     0
100
AcDbPoint
 10
10.0
 20
-1.0625
 30
0.0
  0
POINT
  5
183
100
AcDbEntity
  8
DEFPOINTS
  6
BYBLOCK
 62
     0
100
AcDbPoint
 10
10.35
 20
-1.0625
 30
0.0
  0
POINT
  5
184
100
AcDbEntity
  8
DEFPOINTS
  6
BYBLOCK
 62
     0
100
AcDbPoint
 10
10.35
 20
-1.753377
 30
0.0
  0
ENDBLK
  5
185
100
AcDbEntity
  8
0
100
AcDbBlockEnd
  0
BLOCK
  5
188
100
AcDbEntity
  8
0
100
AcDbBlockBegin
  2
*D17
 70
     1
 10
0.0
 20
0.0
 30
0.0
  3
*D17
  1

  0
LINE
  5
189
100
AcDbEntity
  8
0
  6
BYBLOCK
 62
     0
100
AcDbLine
 10
18.875
 20
0.969
 30
0.0
 11
18.875
 21
2.13761
 31
0.0
  0
LINE
  5
18A
100
AcDbEntity
  8
0
  6
BYBLOCK
 62
     0
100
AcDbLine
 10
19.125
 20
1.125
 30
0.0
 11
19.125
 21
2.13761
 31
0.0
  0
LINE
  5
18B
100
AcDbEntity
  8
0
  6
BYBLOCK
 62
     0
100
AcDbLine
 10
18.695
 20
1.95761
 30
0.0
 11
18.515
 21
1.95761
 31
0.0
  0
LINE
  5
18C
100
AcDbEntity
  8
0
  6
BYBLOCK
 62
     0
100
AcDbLine
 10
19.305
 20
1.95761
 30
0.0
 11
19.485
 21
1.95761
 31
0.0
  0
SOLID
  5
18D
100
AcDbEntity
  8
0
  6
BYBLOCK
 62
     0
100
AcDbTrace
 10
18.695
 20
1.98761
 30
0.0
 11
18.695
 21
1.92761
 31
0.0
 12
18.875
 22
1.95761
 32
0.0
 13
18.875
 23
1.95761
 33
0.0
  0
SOLID
  5
18E
100
AcDbEntity
  8
0
  6
BYBLOCK
 62
     0
100
AcDbTrace
 10
19.305
 20
1.98761
 30
0.0
 11
19.305
 21
1.92761
 31
0.0
 12
19.125
 22
1.95761
 32
0.0
 13
19.125
 23
1.95761
 33
0.0
  0
MTEXT
  5
18F
100
AcDbEntity
  8
0
  6
BYBLOCK
 62
     0
100
AcDbMText
 10
19.98
 20
1.95761
 30
0.0
 40
0.18
 41
0.0
 71
     5
 72
     1
  1
\A1;0.2500
  0
POINT
  5
190
100
AcDbEntity
  8
DEFPOINTS
  6
BYBLOCK
 62
     0
100
AcDbPoint
 10
18.875
 20
0.9065
 30
0.0
  0
POINT
  5
191
100
AcDbEntity
  8
DEFPOINTS
  6
BYBLOCK
 62
     0
100
AcDbPoint
 10
19.125
 20
1.0625
 30
0.0
  0
POINT
  5
192
100
AcDbEntity
  8
DEFPOINTS
  6
BYBLOCK
 62
     0
100
AcDbPoint
 10
19.125
 20
1.95761
 30
0.0
  0
ENDBLK
  5
193
100
AcDbEntity
  8
0
100
AcDbBlockEnd
  0
BLOCK
  5
1B3
100
AcDbEntity
  8
0
100
AcDbBlockBegin
  2
*D18
 70
     1
 10
0.0
 20
0.0
 30
0.0
  3
*D18
  1

  0
LINE
  5
1B4
100
AcDbEntity
  8
0
  6
BYBLOCK
 62
     0
100
AcDbLine
 10
7.79965
 20
0.211746
 30
0.0
 11
7.61965
 21
0.211746
 31
0.0
  0
LINE
  5
1B5
100
AcDbEntity
  8
0
  6
BYBLOCK
 62
     0
100
AcDbLine
 10
7.61965
 20
0.211746
 30
0.0
 11
6.238461
 21
0.100105
 31
0.0
  0
MTEXT
  5
1B6
100
AcDbEntity
  8
0
  6
BYBLOCK
 62
     0
100
AcDbMText
 10
8.38465
 20
0.211746
 30
0.0
 40
0.18
 41
0.0
 71
     5
 72
     1
  1
\A1;\U+22052.1250
  0
SOLID
  5
1B7
100
AcDbEntity
  8
0
  6
BYBLOCK
 62
     0
100
AcDbTrace
 10
6.236044
 20
0.130007
 30
0.0
 11
6.240878
 21
0.070202
 31
0.0
 12
6.059046
 22
0.085603
 32
0.0
 13
6.059046
 23
0.085603
 33
0.0
  0
LINE
  5
1B8
100
AcDbEntity
  8
0
  6
BYBLOCK
 62
     0
100
AcDbLine
 10
4.91
 20
0.0
 30
0.0
 11
5.09
 21
0.0
 31
0.0
  0
LINE
  5
1B9
100
AcDbEntity
  8
0
  6
BYBLOCK
 62
     0
100
AcDbLine
 10
5.0
 20
-0.09
 30
0.0
 11
5.0
 21
0.09
 31
0.0
  0
POINT
  5
1BA
100
AcDbEntity
  8
DEFPOINTS
  6
BYBLOCK
 62
     0
100
AcDbPoint
 10
6.059046
 20
0.085603
 30
0.0
  0
POINT
  5
1BB
100
AcDbEntity
  8
DEFPOINTS
  6
BYBLOCK
 62
     0
100
AcDbPoint
 10
3.940954
 20
-0.085603
 30
0.0
  0
ENDBLK
  5
1BC
100
AcDbEntity
  8
0
100
AcDbBlockEnd
  0
BLOCK
  5
1C0
100
AcDbEntity
  8
0
100
AcDbBlockBegin
  2
*D19
 70
     1
 10
0.0
 20
0.0
 30
0.0
  3
*D19
  1

  0
LINE
  5
1C1
100
AcDbEntity
  8
0
  6
BYBLOCK
 62
     0
100
AcDbLine
 10
19.032
 20
-1.125
 30
0.0
 11
19.032
 21
-1.854535
 31
0.0
  0
LINE
  5
1C2
100
AcDbEntity
  8
0
  6
BYBLOCK
 62
     0
100
AcDbLine
 10
19.125
 20
-1.032
 30
0.0
 11
19.125
 21
-1.854535
 31
0.0
  0
LINE
  5
1C3
100
AcDbEntity
  8
0
  6
BYBLOCK
 62
     0
100
AcDbLine
 10
18.852
 20
-1.674535
 30
0.0
 11
18.672
 21
-1.674535
 31
0.0
  0
LINE
  5
1C4
100
AcDbEntity
  8
0
  6
BYBLOCK
 62
     0
100
AcDbLine
 10
19.305
 20
-1.674535
 30
0.0
 11
19.485
 21
-1.674535
 31
0.0
  0
SOLID
  5
1C5
100
AcDbEntity
  8
0
  6
BYBLOCK
 62
     0
100
AcDbTrace
 10
18.852
 20
-1.644535
 30
0.0
 11
18.852
 21
-1.704535
 31
0.0
 12
19.032
 22
-1.674535
 32
0.0
 13
19.032
 23
-1.674535
 33
0.0
  0
SOLID
  5
1C6
100
AcDbEntity
  8
0
  6
BYBLOCK
 62
     0
100
AcDbTrace
 10
19.305
 20
-1.644535
 30
0.0
 11
19.305
 21
-1.704535
 31
0.0
 12
19.125
 22
-1.674535
 32
0.0
 13
19.125
 23
-1.674535
 33
0.0
  0
MTEXT
  5
1C7
100
AcDbEntity
  8
0
  6
BYBLOCK
 62
     0
100
AcDbMText
 10
19.98
 20
-1.674535
 30
0.0
 40
0.18
 41
0.0
 71
     5
 72
     1
  1
\A1;0.0930
  0
POINT
  5
1C8
100
AcDbEntity
  8
DEFPOINTS
  6
BYBLOCK
 62
     0
100
AcDbPoint
 10
19.032
 20
-1.0625
 30
0.0
  0
POINT
  5
1C9
100
AcDbEntity
  8
DEFPOINTS
  6
BYBLOCK
 62
     0
100
AcDbPoint
 10
19.125
 20
-0.9695
 30
0.0
  0
POINT
  5
1CA
100
AcDbEntity
  8
DEFPOINTS
  6
BYBLOCK
 62
     0
100
AcDbPoint
 10
19.125
 20
-1.674535
 30
0.0
  0
ENDBLK
  5
1CB
100
AcDbEntity
  8
0
100
AcDbBlockEnd
  0
ENDSEC
  0
SECTION
  2
ENTITIES
  0
LINE
  5
2A
100
AcDbEntity
  8
0
  6
CENTER
100
AcDbLine
 10
0.0
 20
-2.0
 30
0.0
 11
0.0
 21
2.0
 31
0.0
  0
LINE
  5
2B
100
AcDbEntity
  8
0
100
AcDbLine
 10
0.0
 20
0.0
 30
0.0
 11
1.414214
 21
1.414214
 31
0.0
  0
LINE
  5
2C
100
AcDbEntity
  8
0
100
AcDbLine
 10
0.0
 20
0.0
 30
0.0
 11
1.414214
 21
-1.414214
 31
0.0
  0
LINE
  5
2D
100
AcDbEntity
  8
0
100
AcDbLine
 10
0.0
 20
0.0
 30
0.0
 11
-1.414214
 21
1.414214
 31
0.0
  0
LINE
  5
2E
100
AcDbEntity
  8
0
100
AcDbLine
 10
0.0
 20
0.0
 30
0.0
 11
-1.414214
 21
-1.414214
 31
0.0
  0
LINE
  5
3B
100
AcDbEntity
  8
0
100
AcDbLine
 10
-0.636817
 20
0.547014
 30
0.0
 11
-0.673873
 21
0.58407
 31
0.0
  0
LINE
  5
3C
100
AcDbEntity
  8
0
100
AcDbLine
 10
-0.673873
 20
0.58407
 30
0.0
 11
-0.58407
 21
0.673873
 31
0.0
  0
LINE
  5
3D
100
AcDbEntity
  8
0
100
AcDbLine
 10
-0.58407
 20
0.673873
 30
0.0
 11
-0.547014
 21
0.636817
 31
0.0
  0
LINE
  5
3E
100
AcDbEntity
  8
0
100
AcDbLine
 10
0.547014
 20
-0.636817
 30
0.0
 11
0.58407
 21
-0.673873
 31
0.0
  0
LINE
  5
3F
100
AcDbEntity
  8
0
100
AcDbLine
 10
0.58407
 20
-0.673873
 30
0.0
 11
0.673873
 21
-0.58407
 31
0.0
  0
LINE
  5
40
100
AcDbEntity
  8
0
100
AcDbLine
 10
0.673873
 20
-0.58407
 30
0.0
 11
0.636817
 21
-0.547014
 31
0.0
  0
ARC
  5
41
100
AcDbEntity
  8
0
100
AcDbCircle
 10
-0.751301
 20
0.751301
 30
0.0
 40
0.0625
100
AcDbArc
 50
226.685413
 51
43.314587
  0
ARC
  5
42
100
AcDbEntity
  8
0
100
AcDbCircle
 10
-0.751301
 20
-0.751301
 30
0.0
 40
0.0625
100
AcDbArc
 50
316.685413
 51
133.314587
  0
ARC
  5
45
100
AcDbEntity
  8
0
100
AcDbCircle
 10
0.0
 20
0.0
 30
0.0
 40
1.0625
100
AcDbArc
 50
51.756327
 51
131.629174
  0
ARC
  5
46
100
AcDbEntity
  8
0
100
AcDbCircle
 10
0.0
 20
0.0
 30
0.0
 40
1.0625
100
AcDbArc
 50
138.370826
 51
221.629174
  0
ARC
  5
47
100
AcDbEntity
  8
0
100
AcDbCircle
 10
0.0
 20
0.0
 30
0.0
 40
1.0625
100
AcDbArc
 50
228.370826
 51
308.243673
  0
ARC
  5
48
100
AcDbEntity
  8
0
100
AcDbCircle
 10
0.0
 20
0.0
 30
0.0
 40
1.0625
100
AcDbArc
 50
321.756327
 51
38.243673
  0
LINE
  5
49
100
AcDbEntity
  8
0
100
AcDbLine
 10
0.657695
 20
0.834472
 30
0.0
 11
0.552604
 21
0.729381
 31
0.0
  0
LINE
  5
4A
100
AcDbEntity
  8
0
100
AcDbLine
 10
0.552604
 20
0.729381
 30
0.0
 11
0.729381
 21
0.552604
 31
0.0
  0
LINE
  5
4B
100
AcDbEntity
  8
0
100
AcDbLine
 10
0.729381
 20
0.552604
 30
0.0
 11
0.834472
 21
0.657695
 31
0.0
  0
LINE
  5
4C
100
AcDbEntity
  8
0
100
AcDbLine
 10
0.834472
 20
-0.657695
 30
0.0
 11
0.751301
 21
-0.574524
 31
0.0
  0
LINE
  5
4E
100
AcDbEntity
  8
0
100
AcDbLine
 10
0.574524
 20
-0.751301
 30
0.0
 11
0.657695
 21
-0.834472
 31
0.0
  0
LINE
  5
4F
100
AcDbEntity
  8
0
100
AcDbLine
 10
0.0
 20
0.0
 30
0.0
 11
-0.411725
 21
-1.957162
 31
0.0
  0
LINE
  5
50
100
AcDbEntity
  8
0
100
AcDbLine
 10
0.0
 20
0.0
 30
0.0
 11
0.411725
 21
1.957162
 31
0.0
  0
INSERT
  5
5F
100
AcDbEntity
  8
0
100
AcDbBlockReference
  2
A$C791503A0
 10
0.08994
 20
0.863273
 30
0.0
 50
303.12
  0
INSERT
  5
66
100
AcDbEntity
  8
0
100
AcDbBlockReference
  2
A$C737C6FE4
 10
-0.110187
 20
-0.806093
 30
0.0
 50
180.0
  0
ARC
  5
67
100
AcDbEntity
  8
0
100
AcDbCircle
 10
0.0
 20
0.0
 30
0.0
 40
0.8395
100
AcDbArc
 50
139.338011
 51
253.781989
  0
ARC
  5
68
100
AcDbEntity
  8
0
100
AcDbCircle
 10
0.0
 20
0.0
 30
0.0
 40
0.8395
100
AcDbArc
 50
262.458011
 51
310.661989
  0
ARC
  5
69
100
AcDbEntity
  8
0
100
AcDbCircle
 10
0.0
 20
0.0
 30
0.0
 40
0.8395
100
AcDbArc
 50
82.458011
 51
130.661989
  0
ARC
  5
6A
100
AcDbEntity
  8
0
100
AcDbCircle
 10
0.0
 20
0.0
 30
0.0
 40
0.8395
100
AcDbArc
 50
319.338011
 51
73.781989
  0
DIMENSION
  5
7C
100
AcDbEntity
  8
0
100
AcDbDimension
  2
*D3
 10
0.0
 20
2.0
 30
0.0
 11
1.477569
 21
2.44212
 31
0.0
 70
    34
  3
STANDARD
100
AcDb2LineAngularDimension
 13
0.0
 23
0.0
 33
0.0
 14
0.411725
 24
1.957162
 34
0.0
 15
0.0
 25
-2.0
 35
0.0
 16
0.175398
 26
2.53373
 36
0.0
  0
DIMENSION
  5
8C
100
AcDbEntity
  8
0
100
AcDbDimension
  2
*D4
 10
-1.414214
 20
1.414214
 30
0.0
 11
-0.932968
 21
2.252385
 31
0.0
 70
    34
  3
STANDARD
100
AcDb2LineAngularDimension
 13
0.0
 23
-2.0
 33
0.0
 14
0.0
 24
2.0
 34
0.0
 15
0.0
 25
0.0
 35
0.0
 16
-0.630991
 26
2.354892
 36
0.0
  0
LINE
  5
90
100
AcDbEntity
  8
0
100
AcDbLine
 10
0.574524
 20
-0.751301
 30
0.0
 11
0.751301
 21
-0.574524
 31
0.0
  0
DIMENSION
  5
A0
100
AcDbEntity
  8
0
100
AcDbDimension
  2
*D5
 10
0.0
 20
2.0
 30
0.0
 11
1.334343
 21
3.221389
 31
0.0
 70
    34
  3
STANDARD
100
AcDb2LineAngularDimension
 13
0.0
 23
0.0
 33
0.0
 14
1.414214
 24
1.414214
 34
0.0
 15
0.0
 25
-2.0
 35
0.0
 16
1.743403
 26
3.019662
 36
0.0
  0
DIMENSION
  5
BB
100
AcDbEntity
  8
0
100
AcDbDimension
  2
*D7
 10
1.354124
 20
1.177347
 30
0.0
 11
2.283682
 21
0.922789
 31
0.0
 70
    33
  3
STANDARD
100
AcDbAlignedDimension
 13
0.657695
 23
0.834472
 33
0.0
 14
0.834472
 24
0.657695
 34
0.0
  0
DIMENSION
  5
DA
100
AcDbEntity
  8
0
100
AcDbDimension
  2
*D9
 10
1.491933
 20
0.010669
 30
0.0
 11
2.406491
 21
0.265228
 31
0.0
 70
    33
  3
STANDARD
100
AcDbAlignedDimension
 13
0.640992
 23
0.640992
 33
0.0
 14
0.751301
 24
0.751301
 34
0.0
  0
DIMENSION
  5
F8
100
AcDbEntity
  8
0
100
AcDbDimension
  2
*D11
 10
1.017268
 20
0.306712
 30
0.0
 11
-2.561156
 21
-0.541551
 31
0.0
 70
   163
  3
STANDARD
100
AcDbDiametricDimension
 15
-1.017268
 25
-0.306712
 35
0.0
 40
0.0
1001
ACAD
1000
DSTYLE
1002
{
1070
   288
1070
     1
1002
}
  0
DIMENSION
  5
107
100
AcDbEntity
  8
0
100
AcDbDimension
  2
*D12
 10
-0.473499
 20
-1.976101
 30
0.0
 11
0.44106
 21
-2.230659
 31
0.0
 70
    33
  3
STANDARD
100
AcDbAlignedDimension
 13
0.662913
 23
-0.662913
 33
0.0
 14
0.751301
 24
-0.751301
 34
0.0
  0
LINE
  5
10C
100
AcDbEntity
  8
0
100
AcDbLine
 10
-1.639183
 20
2.512584
 30
0.0
 11
-2.185577
 21
3.350112
 31
0.0
  0
LINE
  5
10E
100
AcDbEntity
  8
0
100
AcDbLine
 10
-1.639183
 20
2.512584
 30
0.0
 11
-2.185577
 21
3.350112
 31
0.0
  0
LINE
  5
10F
100
AcDbEntity
  8
0
100
AcDbLine
 10
-1.639183
 20
2.512584
 30
0.0
 11
-1.938008
 21
2.670382
 31
0.0
  0
LINE
  5
110
100
AcDbEntity
  8
0
100
AcDbLine
 10
-1.639183
 20
2.512584
 30
0.0
 11
-1.615007
 21
2.791455
 31
0.0
  0
DIMENSION
  5
11F
100
AcDbEntity
  8
0
100
AcDbDimension
  2
*D13
 10
0.0
 20
2.0
 30
0.0
 11
-1.063113
 21
3.575257
 31
0.0
 70
    34
  3
STANDARD
100
AcDb2LineAngularDimension
 13
-1.639183
 23
2.512584
 33
0.0
 14
-2.185577
 24
3.350112
 34
0.0
 15
0.0
 25
-2.0
 35
0.0
 16
-0.714268
 26
3.660942
 36
0.0
  0
MTEXT
  5
120
100
AcDbEntity
  8
0
100
AcDbMText
 10
-2.917106
 20
3.598612
 30
0.0
 40
0.2
 41
1.17088
 71
     1
 72
     5
  1
beam
  0
MTEXT
  5
121
100
AcDbEntity
  8
0
100
AcDbMText
 10
-0.060563
 20
4.216086
 30
0.0
 40
0.2
 41
0.5451
 71
     1
 72
     5
  1
B
  0
LINE
  5
124
100
AcDbEntity
  8
0
100
AcDbLine
 10
-0.100938
 20
4.266534
 30
0.0
 11
0.131219
 21
4.266534
 31
0.0
  0
LINE
  5
125
100
AcDbEntity
  8
0
100
AcDbLine
 10
0.131219
 20
4.266534
 30
0.0
 11
0.020187
 21
4.33716
 31
0.0
  0
INSERT
  5
143
100
AcDbEntity
  8
0
100
AcDbBlockReference
  2
A$C63E652AE
 10
3.94096
 20
-1.061281
 30
0.0
  0
LEADER
  5
152
100
AcDbEntity
  8
0
100
AcDbLeader
  3
STANDARD
 73
     0
 74
     0
 75
     1
 40
0.18
 41
1.26
 76
     3
 10
5.767593
 20
-0.788283
 30
0.0
 10
6.627254
 20
-1.413829
 30
0.0
 10
6.807254
 20
-1.413829
 30
0.0
 77
   256
340
153
211
1.0
221
-0.0000000000000003
231
0.0
  0
MTEXT
  5
153
102
{ACAD_REACTORS
330
152
102
}
100
AcDbEntity
  8
0
100
AcDbMText
 10
6.897254
 20
-1.413829
 30
0.0
 40
0.18
 41
0.0
 71
     4
 72
     1
  1
\A1;fill tube
  0
LEADER
  5
154
100
AcDbEntity
  8
0
100
AcDbLeader
  3
STANDARD
 73
     0
 75
     1
 40
0.24
 41
1.74
 76
     3
 10
5.70703
 20
0.886566
 30
0.0
 10
5.59431
 20
1.92578
 30
0.0
 10
5.41431
 20
1.92578
 30
0.0
 77
   256
340
155
211
1.0
221
-0.0000000000000003
231
0.0
  0
MTEXT
  5
155
102
{ACAD_REACTORS
330
154
102
}
100
AcDbEntity
  8
0
100
AcDbMText
 10
5.32431
 20
1.92578
 30
0.0
 40
0.18
 41
0.0
 71
     6
 72
     1
  1
\A1;level probe
  0
MTEXT
  5
158
100
AcDbEntity
  8
0
100
AcDbMText
 10
6.385141
 20
1.111141
 30
0.0
 40
0.18
 41
0.0
 71
     4
 72
     1
  1
\A1;A
  0
MTEXT
  5
15A
100
AcDbEntity
  8
0
100
AcDbMText
 10
6.453571
 20
1.348219
 30
0.0
 40
0.18
 41
0.0
 71
     4
 72
     1
  1
\A1;
  0
MTEXT
  5
15C
100
AcDbEntity
  8
0
100
AcDbMText
 10
6.536804
 20
1.190388
 30
0.0
 40
0.18
 41
0.0
 71
     4
 72
     1
  1
\A1;
  0
MTEXT
  5
15E
100
AcDbEntity
  8
0
100
AcDbMText
 10
6.351814
 20
1.357688
 30
0.0
 40
0.18
 41
0.0
 71
     4
 72
     1
  1
\A1;
  0
SOLID
  5
15F
100
AcDbEntity
  8
0
100
AcDbTrace
 10
5.890713
 20
0.885956
 30
0.0
 11
5.759699
 21
0.75893
 31
0.0
 12
5.842433
 22
0.92158
 32
0.0
 13
5.842433
 23
0.92158
 33
0.0
  0
LWPOLYLINE
  5
160
100
AcDbEntity
  8
0
100
AcDbPolyline
 90
        3
 70
     0
 43
0.0
 10
5.866573
 20
0.903768
 10
6.117051
 20
1.24322
 10
6.270623
 20
1.155167
  0
MTEXT
  5
162
100
AcDbEntity
  8
0
100
AcDbMText
 10
4.008608
 20
-1.495216
 30
0.0
 40
0.18
 41
0.0
 71
     4
 72
     1
  1
\A1;A
  0
SOLID
  5
163
100
AcDbEntity
  8
0
100
AcDbTrace
 10
4.076386
 20
-0.907019
 30
0.0
 11
4.209307
 21
-0.78199
 31
0.0
 12
4.124121
 22
-0.94337
 32
0.0
 13
4.124121
 23
-0.94337
 33
0.0
  0
LWPOLYLINE
  5
164
100
AcDbEntity
  8
0
100
AcDbPolyline
 90
        4
 70
     0
 43
0.0
 10
4.100254
 20
-0.925194
 10
3.760045
 20
-1.371943
 10
3.760045
 20
-1.371943
 10
3.918608
 20
-1.495216
  0
LWPOLYLINE
  5
165
100
AcDbEntity
  8
0
100
AcDbPolyline
 90
        4
 70
     1
 43
0.0
 10
10.0
 20
-1.0625
 10
10.35
 20
-1.0625
 10
10.35
 20
-1.0
 10
10.0
 20
-1.0
  0
LINE
  5
169
100
AcDbEntity
  8
0
100
AcDbLine
 10
19.125
 20
0.9065
 30
0.0
 11
18.875
 21
0.9065
 31
0.0
  0
LINE
  5
16A
100
AcDbEntity
  8
0
100
AcDbLine
 10
18.875
 20
0.9065
 30
0.0
 11
18.875
 21
0.8395
 31
0.0
  0
LWPOLYLINE
  5
16B
102
{ACAD_REACTORS
330
175
102
}
100
AcDbEntity
  8
0
100
AcDbPolyline
 90
        4
 70
     1
 43
0.0
 10
10.0
 20
0.8395
 10
18.875
 20
0.8395
 10
18.875
 20
0.9065
 10
10.0
 20
0.9065
  0
LINE
  5
16C
100
AcDbEntity
  8
0
100
AcDbLine
 10
10.0
 20
1.0625
 30
0.0
 11
19.032
 21
1.0625
 31
0.0
  0
LINE
  5
16D
100
AcDbEntity
  8
0
100
AcDbLine
 10
10.0
 20
-0.8395
 30
0.0
 11
19.125
 21
-0.8395
 31
0.0
  0
LINE
  5
16F
100
AcDbEntity
  8
0
100
AcDbLine
 10
19.032
 20
-1.0625
 30
0.0
 11
10.35
 21
-1.0625
 31
0.0
  0
LINE
  5
170
100
AcDbEntity
  8
0
100
AcDbLine
 10
10.35
 20
-1.0625
 30
0.0
 11
10.35
 21
-1.0
 31
0.0
  0
LINE
  5
171
100
AcDbEntity
  8
0
100
AcDbLine
 10
10.35
 20
-1.0
 30
0.0
 11
10.0
 21
-1.0
 31
0.0
  0
LINE
  5
172
100
AcDbEntity
  8
0
100
AcDbLine
 10
10.0
 20
-1.0
 30
0.0
 11
10.0
 21
-0.8395
 31
0.0
  0
HATCH
  5
175
100
AcDbEntity
  8
0
100
AcDbHatch
 10
0.0
 20
0.0
 30
0.0
210
0.0
220
0.0
230
1.0
  2
ANSI31
 70
     0
 71
     1
 91
        1
 92
        1
 93
        4
 72
     1
 10
10.0
 20
0.8395
 11
18.875
 21
0.8395
 72
     1
 10
18.875
 20
0.8395
 11
18.875
 21
0.9065
 72
     1
 10
18.875
 20
0.9065
 11
10.0
 21
0.9065
 72
     1
 10
10.0
 20
0.9065
 11
10.0
 21
0.8395
 97
        1
330
16B
 75
     0
 76
     1
 52
0.0
 41
1.0
 77
     0
 78
     1
 53
45.0
 43
0.0
 44
0.0
 45
-0.0883883476483184
 46
0.0883883476483185
 79
     0
 98
        1
 10
0.0
 20
0.0
  0
HATCH
  5
176
100
AcDbEntity
  8
0
100
AcDbHatch
 10
0.0
 20
0.0
 30
0.0
210
0.0
220
0.0
230
1.0
  2
ANSI31
 70
     0
 71
     0
 91
        1
 92
       33
 93
        5
 72
     1
 10
10.0
 20
-0.8395
 11
19.125
 21
-0.8395
 72
     1
 10
19.125
 20
-0.8395
 11
19.125
 21
-1.0625
 72
     1
 10
19.032
 20
-1.0625
 11
10.35
 21
-1.0625
 72
     1
 10
10.35
 20
-1.0
 11
10.0
 21
-1.0
 72
     1
 10
10.0
 20
-1.0
 11
10.0
 21
-0.8395
 97
        0
 75
     0
 76
     1
 52
0.0
 41
1.0
 77
     0
 78
     1
 53
45.0
 43
0.0
 44
0.0
 45
-0.0883883476483184
 46
0.0883883476483185
 79
     0
 98
        1
 10
0.0
 20
0.0
  0
LINE
  5
177
100
AcDbEntity
  8
0
100
AcDbLine
 10
10.0
 20
1.0625
 30
0.0
 11
10.0
 21
-1.03125
 31
0.0
  0
LINE
  5
178
100
AcDbEntity
  8
0
100
AcDbLine
 10
19.125
 20
0.9695
 30
0.0
 11
19.125
 21
-0.9695
 31
0.0
  0
DIMENSION
  5
186
100
AcDbEntity
  8
0
100
AcDbDimension
  2
*D16
 10
10.35
 20
-1.753377
 30
0.0
 11
11.205
 21
-1.753377
 31
0.0
 70
    32
  3
STANDARD
100
AcDbAlignedDimension
 13
10.0
 23
-1.0625
 33
0.0
 14
10.35
 24
-1.0625
 34
0.0
100
AcDbRotatedDimension
  0
DIMENSION
  5
194
100
AcDbEntity
  8
0
100
AcDbDimension
  2
*D17
 10
19.125
 20
1.95761
 30
0.0
 11
19.98
 21
1.95761
 31
0.0
 70
    32
  3
STANDARD
100
AcDbAlignedDimension
 13
18.875
 23
0.9065
 33
0.0
 14
19.125
 24
1.0625
 34
0.0
100
AcDbRotatedDimension
  0
DIMENSION
  5
1A0
100
AcDbEntity
  8
0
100
AcDbDimension
  2
*D18
 10
3.940954
 20
-0.085603
 30
0.0
 11
8.38465
 21
0.211746
 31
0.0
 70
   163
  3
STANDARD
100
AcDbDiametricDimension
 15
6.059046
 25
0.085603
 35
0.0
 40
0.0
1001
ACAD
1000
DSTYLE
1002
{
1070
   288
1070
     1
1002
}
  0
LINE
  5
1AF
100
AcDbEntity
  8
0
100
AcDbLine
 10
10.0
 20
-0.0635
 30
0.0
 11
19.125
 21
-0.0635
 31
0.0
  0
LINE
  5
1B0
100
AcDbEntity
  8
0
100
AcDbLine
 10
19.125
 20
0.0635
 30
0.0
 11
10.0
 21
0.0635
 31
0.0
  0
LINE
  5
1B1
100
AcDbEntity
  8
0
100
AcDbLine
 10
10.0
 20
0.666394
 30
0.0
 11
19.125
 21
0.666394
 31
0.0
  0
LINE
  5
1B2
100
AcDbEntity
  8
0
100
AcDbLine
 10
19.125
 20
0.735787
 30
0.0
 11
10.0
 21
0.735787
 31
0.0
  0
LINE
  5
1BD
100
AcDbEntity
  8
0
100
AcDbLine
 10
19.032
 20
-1.0625
 30
0.0
 11
19.032
 21
-1.0625
 31
0.0
  0
LINE
  5
1BE
100
AcDbEntity
  8
0
100
AcDbLine
 10
19.032
 20
-1.0625
 30
0.0
 11
19.125
 21
-0.9695
 31
0.0
  0
DIMENSION
  5
1CC
100
AcDbEntity
  8
0
100
AcDbDimension
  2
*D19
 10
19.125
 20
-1.674535
 30
0.0
 11
19.98
 21
-1.674535
 31
0.0
 70
    32
  3
STANDARD
100
AcDbAlignedDimension
 13
19.032
 23
-1.0625
 33
0.0
 14
19.125
 24
-0.9695
 34
0.0
100
AcDbRotatedDimension
  0
LINE
  5
1CE
100
AcDbEntity
  8
0
100
AcDbLine
 10
19.032
 20
1.0625
 30
0.0
 11
19.125
 21
0.9695
 31
0.0
  0
MTEXT
  5
1D0
100
AcDbEntity
  8
0
100
AcDbMText
 10
10.80719
 20
4.937379
 30
0.0
 40
0.2
 41
7.6282
 71
     1
 72
     5
  1
IV "Tailpiece" Insert Sleeve\PAl 6061\PSeely 2/15/01
  0
LWPOLYLINE
  5
1D1
100
AcDbEntity
  8
0
100
AcDbPolyline
 90
        4
 70
     1
 43
0.0
 10
10.137215
 20
5.246875
 10
16.133656
 20
5.246875
 10
16.133656
 20
3.486595
 10
10.137215
 20
3.486595
  0
ENDSEC
  0
SECTION
  2
OBJECTS
  0
DICTIONARY
  5
C
100
AcDbDictionary
  3
ACAD_GROUP
350
D
  3
ACAD_MLINESTYLE
350
1B
  3
ACDBVARIABLEDICTIONARY
350
173
  0
DICTIONARY
  5
D
102
{ACAD_REACTORS
330
C
102
}
100
AcDbDictionary
  0
DICTIONARY
  5
1B
102
{ACAD_REACTORS
330
C
102
}
100
AcDbDictionary
  3
STANDARD
350
1C
  0
DICTIONARY
  5
173
102
{ACAD_REACTORS
330
C
102
}
100
AcDbDictionary
  3
SORTENTS
350
174
  0
MLINESTYLE
  5
1C
102
{ACAD_REACTORS
330
1B
102
}
100
AcDbMlineStyle
  2
STANDARD
 70
     0
  3

 62
   256
 51
90.0
 52
90.0
 71
     2
 49
0.5
 62
   256
  6
BYLAYER
 49
-0.5
 62
   256
  6
BYLAYER
  0
DICTIONARYVAR
  5
174
102
{ACAD_REACTORS
330
173
102
}
100
DictionaryVariables
280
     0
  1
96
  0
ENDSEC
  0
EOF
